<?xml version="1.0" standalone="no"?>
<!DOCTYPE svg PUBLIC "-//W3C//DTD SVG 1.1//EN" "http://www.w3.org/Graphics/SVG/1.1/DTD/svg11.dtd" >
<svg xmlns="http://www.w3.org/2000/svg" xmlns:xlink="http://www.w3.org/1999/xlink" version="1.1">
<metadata>
Created by FontForge 20170104 at Wed Oct 30 17:14:58 2013
 By myTaste
Copyright (C) 2013 by original authors @ fontello.com
</metadata>
<defs>
<font id="revicons" horiz-adv-x="928" >
  <font-face 
    font-family="revicons"
    font-weight="400"
    font-stretch="normal"
    units-per-em="1000"
    panose-1="2 0 5 3 0 0 0 0 0 0"
    ascent="850"
    descent="-150"
    bbox="-0.380952 -150 1071 850"
    underline-thickness="0"
    underline-position="10"
    unicode-range="U+E800-E83B"
  />
<missing-glyph horiz-adv-x="1000" 
 />
    <glyph glyph-name=".notdef" horiz-adv-x="1000" 
 />
    <glyph glyph-name=".notdef" horiz-adv-x="1000" 
 />
    <glyph glyph-name="picture" unicode="&#xe800;" horiz-adv-x="1000" 
d="M856 518h-100l-124 150l-214 -150h-180q-52 0 -90 -39t-38 -91v-160l-108 296q-10 38 22 52l680 248q36 10 50 -24zM962 428q16 0 27 -12t11 -28v-472q0 -16 -11 -28t-27 -12h-724q-16 0 -27 12t-11 28v472q0 16 11 28t27 12h724zM906 -24v162l-72 160l-166 -60
l-130 -132l-138 170l-92 -214v-86h598z" />
    <glyph glyph-name="trash" unicode="&#xe801;" horiz-adv-x="785" 
d="M286 439v-321q0 -8 -5 -13t-13 -5h-36q-8 0 -13 5t-5 13v321q0 8 5 13t13 5h36q8 0 13 -5t5 -13zM429 439v-321q0 -8 -5 -13t-13 -5h-36q-8 0 -13 5t-5 13v321q0 8 5 13t13 5h36q8 0 13 -5t5 -13zM571 439v-321q0 -8 -5 -13t-12 -5h-36q-8 0 -13 5t-5 13v321q0 8 5 13
t13 5h36q7 0 12 -5t5 -13zM643 35v529h-500v-529q0 -12 4 -22t8 -15t6 -5h464q2 0 6 5t8 15t4 22zM268 636h250l-27 65q-4 5 -9 6h-177q-6 -1 -10 -6zM786 618v-36q0 -8 -5 -13t-13 -5h-54v-529q0 -46 -26 -80t-63 -34h-464q-37 0 -63 33t-27 79v531h-53q-8 0 -13 5t-5 13
v36q0 8 5 13t13 5h172l39 93q9 21 31 35t44 15h178q22 0 44 -15t30 -35l39 -93h173q8 0 13 -5t5 -13z" />
    <glyph glyph-name="search" unicode="&#xe802;" 
d="M643 386q0 103 -74 176t-176 74t-177 -74t-73 -176t73 -177t177 -73t176 73t74 177zM929 -79q0 -29 -22 -50t-51 -21t-49 21l-191 191q-100 -69 -223 -69q-80 0 -153 31t-125 84t-84 125t-31 153t31 152t84 126t125 84t153 31t152 -31t126 -84t84 -126t31 -152
q0 -123 -69 -223l191 -191q21 -21 21 -51z" />
    <glyph glyph-name="picture-1" unicode="&#xe803;" horiz-adv-x="1071" 
d="M357 529q0 -45 -31 -76t-76 -32t-76 32t-31 76t31 75t76 32t76 -32t31 -75zM929 314v-250h-786v107l178 179l90 -89l285 285zM982 707h-893q-7 0 -12 -5t-6 -13v-678q0 -8 6 -13t12 -5h893q7 0 13 5t5 13v678q0 7 -5 13t-13 5zM1071 689v-678q0 -37 -26 -63t-63 -27h-893
q-36 0 -63 27t-26 63v678q0 37 26 63t63 27h893q37 0 63 -27t26 -63z" />
    <glyph glyph-name="layers-alt" unicode="&#xe804;" 
d="M18 127l446 -111l447 111v-111l-447 -113l-446 113v111zM18 351l446 -112l447 112v-112l-447 -112l-446 112v112zM18 574l446 -112l447 112v-112l-447 -111l-446 111v112zM18 797l446 -112l447 112v-112l-447 -111l-446 111v112z" />
    <glyph glyph-name="video" unicode="&#xe805;" horiz-adv-x="1071" 
d="M214 -43v72q0 14 -10 25t-25 10h-72q-14 0 -25 -10t-11 -25v-72q0 -14 11 -25t25 -11h72q14 0 25 11t10 25zM214 171v72q0 14 -10 25t-25 11h-72q-14 0 -25 -11t-11 -25v-72q0 -14 11 -25t25 -10h72q14 0 25 10t10 25zM214 386v71q0 15 -10 25t-25 11h-72q-14 0 -25 -11
t-11 -25v-71q0 -15 11 -25t25 -11h72q14 0 25 11t10 25zM786 -43v286q0 14 -11 25t-25 11h-429q-14 0 -25 -11t-10 -25v-286q0 -14 10 -25t25 -11h429q15 0 25 11t11 25zM214 600v71q0 15 -10 26t-25 10h-72q-14 0 -25 -10t-11 -26v-71q0 -15 11 -25t25 -11h72q14 0 25 11
t10 25zM1000 -43v72q0 14 -11 25t-25 10h-71q-15 0 -25 -10t-11 -25v-72q0 -14 11 -25t25 -11h71q15 0 25 11t11 25zM786 386v285q0 15 -11 26t-25 10h-429q-14 0 -25 -10t-10 -26v-285q0 -15 10 -25t25 -11h429q15 0 25 11t11 25zM1000 171v72q0 14 -11 25t-25 11h-71
q-15 0 -25 -11t-11 -25v-72q0 -14 11 -25t25 -10h71q15 0 25 10t11 25zM1000 386v71q0 15 -11 25t-25 11h-71q-15 0 -25 -11t-11 -25v-71q0 -15 11 -25t25 -11h71q15 0 25 11t11 25zM1000 600v71q0 15 -11 26t-25 10h-71q-15 0 -25 -10t-11 -26v-71q0 -15 11 -25t25 -11h71
q15 0 25 11t11 25zM1071 689v-750q0 -37 -26 -63t-63 -26h-893q-36 0 -63 26t-26 63v750q0 37 26 63t63 27h893q37 0 63 -27t26 -63z" />
    <glyph glyph-name="arrows-ccw" unicode="&#xe806;" horiz-adv-x="820" 
d="M186 140l116 116v-292l-276 16l88 86q-116 122 -114 290t120 288q100 100 240 116l4 -102q-100 -16 -172 -88q-88 -88 -90 -213t84 -217zM518 738l276 -16l-88 -86q116 -122 114 -290t-120 -288q-96 -98 -240 -118l-2 104q98 16 170 88q88 88 90 213t-84 217l-114 -116z
" />
    <glyph glyph-name="magic" unicode="&#xe807;" 
d="M664 526l164 163l-60 60l-164 -164zM913 689q0 -15 -10 -25l-717 -718q-10 -10 -25 -10t-25 10l-111 111q-10 10 -10 25t10 25l718 718q10 10 25 10t25 -10l110 -111q10 -10 10 -25zM160 795l54 -16l-54 -17l-17 -55l-17 55l-55 17l55 16l17 55zM355 705l109 -34
l-109 -33l-34 -109l-33 109l-109 33l109 34l33 109zM874 438l55 -17l-55 -16l-17 -55l-17 55l-54 16l54 17l17 55zM517 795l54 -16l-54 -17l-17 -55l-17 55l-54 17l54 16l17 55z" />
    <glyph glyph-name="ccw" unicode="&#xe808;" horiz-adv-x="940" 
d="M532 736q170 0 289 -120t119 -290t-119 -290t-289 -120q-142 0 -252 88l70 74q84 -60 182 -60q126 0 216 90t90 218t-90 218t-215 90t-215 -87t-92 -211h142l-184 -204l-184 204h124q2 166 122 283t286 117z" />
    <glyph glyph-name="doc" unicode="&#xe809;" horiz-adv-x="834" 
d="M818 595q16 -16 16 -36v-521q0 -65 -46 -111t-110 -46h-522q-65 0 -110 46t-46 111v625q0 65 46 110t110 46h417q22 0 37 -15zM708 559l-135 134v-56q0 -32 23 -55t55 -23h57zM678 -15q21 0 36 16t15 37v469h-78q-53 0 -92 38t-38 92v78h-365q-21 0 -37 -15t-15 -37v-625
q0 -21 15 -37t37 -16h522z" />
    <glyph glyph-name="cancel" unicode="&#xe80a;" horiz-adv-x="785" 
d="M724 112q0 -22 -15 -38l-76 -76q-16 -15 -38 -15t-38 15l-164 165l-164 -165q-16 -15 -38 -15t-38 15l-76 76q-16 16 -16 38t16 38l164 164l-164 164q-16 16 -16 38t16 38l76 76q16 16 38 16t38 -16l164 -164l164 164q16 16 38 16t38 -16l76 -76q15 -15 15 -38t-15 -38
l-164 -164l164 -164q15 -15 15 -38z" />
    <glyph glyph-name="export" unicode="&#xe80b;" horiz-adv-x="1000" 
d="M750 60v56l100 82v-188q0 -20 -15 -35t-35 -15h-750q-20 0 -35 15t-15 35v550q0 22 14 36t36 14h288q-32 -24 -59 -49t-39 -39l-10 -12h-130v-450h650zM668 408q-166 0 -242 -41t-160 -181q0 8 1 22t9 56t22 79t44 83t70 79t107 56t149 23v156l332 -250l-332 -260v178z
" />
    <glyph glyph-name="list-add" unicode="&#xe80c;" horiz-adv-x="1000" 
d="M350 400q22 0 36 -15t14 -35t-15 -35t-35 -15h-300q-20 0 -35 15t-15 35t14 35t36 15h300zM350 200q22 0 36 -15t14 -35t-15 -35t-35 -15h-300q-20 0 -35 15t-15 35t14 35t36 15h300zM970 400q30 0 30 -50t-30 -50h-170v-170q0 -30 -50 -30t-50 30v170h-164q-30 0 -30 50
t30 50h164v170q0 30 50 30t50 -30v-170h170zM350 600q22 0 36 -15t14 -35t-15 -35t-35 -15h-300q-20 0 -35 15t-15 35t14 35t36 15h300z" />
    <glyph glyph-name="info-circled" unicode="&#xe80f;" horiz-adv-x="857" 
d="M571 82v89q0 8 -5 13t-12 5h-54v286q0 8 -5 13t-13 5h-178q-8 0 -13 -5t-5 -13v-89q0 -8 5 -13t13 -5h53v-179h-53q-8 0 -13 -5t-5 -13v-89q0 -8 5 -13t13 -5h250q7 0 12 5t5 13zM500 582v89q0 8 -5 13t-13 5h-107q-8 0 -13 -5t-5 -13v-89q0 -8 5 -13t13 -5h107q8 0 13 5
t5 13zM857 350q0 -117 -57 -215t-156 -156t-215 -58t-216 58t-155 156t-58 215t58 215t155 156t216 58t215 -58t156 -156t57 -215z" />
    <glyph glyph-name="left-dir" unicode="&#xe817;" horiz-adv-x="357" 
d="M357 600v-500q0 -14 -10 -25t-26 -11t-25 11l-250 250q-10 11 -10 25t10 25l250 250q11 11 25 11t26 -11t10 -25z" />
    <glyph glyph-name="right-dir" unicode="&#xe818;" horiz-adv-x="357" 
d="M321 350q0 -14 -10 -25l-250 -250q-11 -11 -25 -11t-25 11t-11 25v500q0 15 11 25t25 11t25 -11l250 -250q10 -10 10 -25z" />
    <glyph glyph-name="left-open" unicode="&#xe819;" horiz-adv-x="642" 
d="M414 -28l-364 364q-20 20 -20 50t20 51l364 363q21 20 51 20t50 -20l42 -42q21 -21 21 -51t-21 -50l-271 -271l271 -271q21 -21 21 -51t-21 -50l-42 -42q-21 -20 -50 -20t-51 20z" />
    <glyph glyph-name="right-open" unicode="&#xe81a;" horiz-adv-x="642" 
d="M613 386q0 -29 -20 -51l-364 -363q-21 -21 -50 -21t-51 21l-42 42q-21 21 -21 50.5t21 50.5l271 271l-271 270q-21 22 -21 51.5t21 49.5l42 42q20 21 51 21t50 -21l364 -363q20 -21 20 -50z" />
    <glyph glyph-name="angle-right" unicode="&#xe81d;" horiz-adv-x="357" 
d="M332 314q0 -7 -6 -13l-260 -260q-5 -5 -12 -5t-13 5l-28 28q-6 6 -6 13t6 13l219 219l-219 220q-6 5 -6 12t6 13l28 28q5 6 13 6t12 -6l260 -260q6 -5 6 -13z" />
    <glyph glyph-name="right-big" unicode="&#xe81e;" horiz-adv-x="857" 
d="M821 314q0 -30 -20 -50l-363 -364q-22 -20 -51 -20t-50 20l-42 42q-22 21 -22 51t22 51l163 163h-393q-29 0 -47 21t-18 51v71q0 30 18 51t47 20h393l-163 164q-22 21 -22 51t22 50l42 42q21 21 50 21t51 -21l363 -363q20 -20 20 -51z" />
    <glyph glyph-name="left-big" unicode="&#xe81f;" horiz-adv-x="857" 
d="M857 350v-71q0 -30 -18 -51t-47 -21h-393l164 -164q21 -20 21 -50t-21 -50l-42 -43q-21 -20 -50.5 -20t-50.5 20l-364 364q-20 21 -20 50t20 51l364 363q21 21 50 21t51 -21l42 -42q21 -21 21 -50t-21 -51l-164 -164h393q29 0 47 -20t18 -51z" />
    <glyph glyph-name="angle-left" unicode="&#xe820;" horiz-adv-x="357" 
d="M350 546q0 -7 -6 -12l-219 -220l219 -219q6 -6 6 -13t-6 -13l-28 -28q-5 -5 -12 -5t-13 5l-260 260q-6 6 -6 13t6 13l260 260q5 6 13 6t12 -6l28 -28q6 -5 6 -13z" />
    <glyph glyph-name="left-open-mini" unicode="&#xe822;" horiz-adv-x="265" 
d="M252 180q26 -26 0 -48q-26 -26 -48 0l-192 194q-24 24 0 50l192 194q22 26 48 0q26 -22 0 -48l-156 -172z" />
    <glyph glyph-name="right-open-mini" unicode="&#xe823;" horiz-adv-x="265" 
d="M13 180l158 170l-158 172q-26 26 0 48q26 26 48 0l192 -194q24 -26 0 -50l-192 -194q-22 -26 -48 0q-26 22 0 48z" />
    <glyph glyph-name="left-open-big" unicode="&#xe824;" horiz-adv-x="465" 
d="M452 -20q26 -26 0 -48q-26 -26 -48 0l-392 394q-24 24 0 50l392 394q22 26 48 0q26 -22 0 -48l-358 -372z" />
    <glyph glyph-name="right-open-big" unicode="&#xe825;" horiz-adv-x="465" 
d="M13 -20l358 370l-358 372q-26 26 0 48q26 26 48 0l392 -394q24 -26 0 -50l-392 -394q-22 -26 -48 0q-26 22 0 48z" />
    <glyph glyph-name="right" unicode="&#xe826;" horiz-adv-x="730" 
d="M350 680l380 -330l-380 -330v192h-350v278h350v190z" />
    <glyph glyph-name="arrow-combo" unicode="&#xe827;" horiz-adv-x="460" 
d="M230 850l230 -364h-460zM230 -150l-230 366h460z" />
    <glyph glyph-name="popup" unicode="&#xe828;" horiz-adv-x="800" 
d="M700 750q42 0 71 -29t29 -71v-400q0 -40 -29 -70t-71 -30h-400q-40 0 -70 30t-30 70v402q0 40 29 69t71 29h400zM700 250v400h-400v-400h400zM100 350v-300h300v-100h-300q-40 0 -70 30t-30 70v300h100z" />
    <glyph glyph-name="palette" unicode="&#xe829;" horiz-adv-x="980" 
d="M857 622q72 -48 101 -110t20 -104t-35 -48q-16 -4 -54 10t-80 10t-80 -46q-30 -46 -21 -75t34 -65t23 -50q-2 -26 -36 -63t-126 -74t-216 -37q-186 0 -291 101t-95 245q8 118 104 235t216 151q290 84 536 -80zM539 156q30 0 52 22t22 54t-22 53t-53 21t-53 -21t-22 -53
t22 -54t54 -22z" />
    <glyph glyph-name="left-open-1" unicode="&#xe82a;" horiz-adv-x="341" 
d="M242 626q14 16 39 16t41 -16q38 -36 0 -80l-186 -196l186 -194q38 -44 0 -80q-16 -16 -40 -16t-40 16l-226 236q-16 16 -16 39t16 39q206 214 226 236z" />
    <glyph glyph-name="right-open-1" unicode="&#xe82b;" horiz-adv-x="340" 
d="M98 626l226 -236q16 -16 16 -39t-16 -39l-226 -236q-16 -16 -40 -16t-40 16q-36 36 0 80l186 194l-186 196q-36 44 0 80q16 16 41 16t39 -16z" />
    <glyph glyph-name="left-open-2" unicode="&#xe82c;" horiz-adv-x="513" 
d="M481 684q32 -31 32 -74t-32 -74l-186 -186l186 -186q32 -31 32 -74t-32 -74t-73 -31t-74 31l-334 334l334 334q30 31 74 31t73 -31z" />
    <glyph glyph-name="right-open-2" unicode="&#xe82d;" horiz-adv-x="514" 
d="M31 684q30 31 74 31t74 -31l335 -334l-335 -334q-31 -31 -74 -31t-74 31t-31 74t31 74l188 186l-188 186q-31 32 -31 74t31 74z" />
    <glyph glyph-name="left-open-outline" unicode="&#xe82e;" horiz-adv-x="638" 
d="M638 91q0 -64 -47 -111t-110 -46q-65 0 -110 45l-371 372l371 371q44 44 111 44t111.5 -44.5t44.5 -110t-45 -110.5l-150 -150l150 -150q45 -45 45 -110zM148 351l297 -298q15 -15 37 -15t37 15t15 37t-15 37l-224 224l224 223q15 15 15 37t-15 37t-37 15t-37 -15z" />
    <glyph glyph-name="right-open-outline" unicode="&#xe82f;" horiz-adv-x="638" 
d="M156 -66q-63 0 -110 46t-46 111t46 110l150 150l-150 150q-46 46 -46 110.5t46 110.5q44 44 110 44t110 -44l372 -371l-372 -372q-45 -45 -110 -45zM156 663q-21 0 -37 -16t-15.5 -36t16.5 -37l223 -223l-223 -224q-16 -16 -16 -37t15.5 -36.5t36.5 -15.5t37 15l297 298
l-297 297q-15 15 -37 15z" />
    <glyph glyph-name="pencil-1" unicode="&#xe831;" horiz-adv-x="830" 
d="M795 731q37 -36 34.5 -82t-38.5 -83l-46 -46q4 1 8.5 35t-45.5 88q-50 44 -86 42.5t-38 -5.5l49 48q34 34 81 34.5t81 -31.5zM706 481l-492 -493l-210 -51l-4 4l55 210l493 490q6 2 21.5 4.5t38.5 -2.5l-523 -522l-15 -55l60 -60l56 15l25 24l3 56l-40 40l479 479l15 -15
q49 -54 45.5 -88.5t-7.5 -35.5z" />
    <glyph glyph-name="cog" unicode="&#xe832;" horiz-adv-x="840" 
d="M760 350q0 -72 80 -122q-12 -40 -34 -82q-70 18 -136 -44q-54 -58 -34 -136q-40 -20 -84 -36q-46 82 -132 82t-132 -82q-44 16 -84 36q20 80 -34 135t-136 35q-14 26 -34 82q82 52 82 132q0 72 -82 124q20 56 34 82q74 -18 136 44q54 56 34 136q42 22 84 34
q46 -80 132 -80t132 80q42 -12 84 -34q-20 -78 34 -136q66 -62 136 -44q22 -42 34 -82q-80 -50 -80 -124zM420 168q76 0 129 53t53 129t-53 130t-129 54t-129 -54t-53 -130t53 -129t129 -53z" />
    <glyph glyph-name="login" unicode="&#xe833;" horiz-adv-x="900" 
d="M800 800q42 0 71 -29t29 -71v-700q0 -40 -29 -70t-71 -30h-450q-40 0 -69 30t-29 70v100h98v-100h450v700h-450v-150h-98v150q0 42 29 71t69 29h450zM450 130v120h-450v150h450v120l200 -194z" />
    <glyph glyph-name="logout" unicode="&#xe834;" horiz-adv-x="900" 
d="M502 0v100h98v-100q0 -40 -29 -70t-71 -30h-400q-40 0 -70 30t-30 70v700q0 42 30 71t70 29h400q42 0 71 -29t29 -71v-150h-98v150h-402v-700h402zM900 326l-198 -196v120h-450v150h450v120z" />
    <glyph glyph-name="left" unicode="&#xe836;" horiz-adv-x="730" 
d="M378 20l-378 330l378 330v-190h352v-278h-352v-192z" />
    <glyph glyph-name="equalizer" unicode="&#xe83a;" 
d="M576 239v-112h-55v-167q0 -23 -17 -40t-39 -17t-39 17t-17 40v167h-56v112h56v503q0 24 17 39t38 16q24 0 41 -16t16 -39v-503h55zM911 574v-112h-55v-502q0 -23 -16 -40t-40 -17t-40 17t-16 40v502h-56v112h56v168q0 24 16 39t39 16t41 -16t16 -39v-168h55zM241 462
v-111h-55v-391q0 -23 -16 -40t-39.5 -17t-39.5 17t-17 40v391h-56v111h56v280q0 24 16 39t40 16t40 -16t16 -39v-280h55z" />
    <glyph glyph-name="down-open" unicode="&#xe83b;" 
d="M899 457q0 -29 -21 -50l-363 -363q-21 -22 -51 -22t-50 22l-363 363q-21 20 -21 50t21 51l41 42q22 20 51 20t50 -20l271 -271l271 271q21 20 50.5 20t50.5 -20l42 -42q21 -22 21 -51z" />
  </font>
</defs>
</svg>
